SUPRAPHON

Doporučte ostatním členům nahrávky, které se vám líbí.
Uživatelský avatar
DinosaurJr
Příspěvky: 53
Registrován: pát 13. dub 2012 21:31:13

SUPRAPHON

Příspěvekod DinosaurJr » úte 12. úno 2013 20:33:01

K dispozici staré SP např. Sandonoriko na => Supraphonline.cz
http://zpravy.e15.cz/byznys/technologie ... iky-949259

Únorová novinka ve FLAC za 2 stofky,-

FLAMENGO - Kuře v hodinkách ´72
http://www.supraphonline.cz/album/2800-kure-v-hodinkach
Téměř "každý" "čtvrtek" "novou" LP ♪♫♪

Jirka33
Příspěvky: 231
Registrován: stř 28. čer 2017 0:04:16

Re: SUPRAPHON

Příspěvekod Jirka33 » pon 31. pro 2018 16:35:31

Vlastní nekdo v hires Smetana: Má vlast. Cyklus symfonických básní?

https://www.supraphonline.cz/album/2837 ... Id=3304240

Zajimalo by me zda je to povedený přepis z pásků. Slyšel jsem London Symphony Orchestra Sir Colin Davis - Smetana Ma vlast My Fatherland 2005 2018 24-96 ta me ale moc provedenim nezaujala.

Uživatelský avatar
PavelDosko
Příspěvky: 587
Registrován: stř 14. bře 2012 20:59:37
Bydliště: Olomouc

Re: SUPRAPHON

Příspěvekod PavelDosko » pon 31. pro 2018 17:15:35

ano, mam hires ze Supraphonline, nahravka vyborna
Vaclav Neumann a CPO 1976, DR 14
PMA PA4 Big Brother,premp SPaudio P1,DAC SPaudio D1,Aurum Cantus V8F,filtrace RiAudio PLF,power cable Roth Orfeo, komplet kabely AR TripleC,MF TriVista,MED MI 1005,iFi iUSBPower a iPurifier 2 a Gemini, Fidelizer Pro, NUC i3 Akasa, 2x LPSU

Jirka33
Příspěvky: 231
Registrován: stř 28. čer 2017 0:04:16

Re: SUPRAPHON

Příspěvekod Jirka33 » pon 31. pro 2018 17:51:38

Super, dekuji za odpoved. ^:)^

Jirka33
Příspěvky: 231
Registrován: stř 28. čer 2017 0:04:16

Re: SUPRAPHON

Příspěvekod Jirka33 » sob 19. led 2019 11:57:03

Smetana Ma Vlast Cyklus Symfonickych Basni (Hi-Res)

foobar2000 1.3.8 / Dynamic Range Meter 1.1.1
log date: 2019-01-19 10:51:27

--------------------------------------------------------------------------------
Analyzed: ? / ?
--------------------------------------------------------------------------------

DR Peak RMS Duration Track
--------------------------------------------------------------------------------
DR13 0.00 dB -19.38 dB 15:17 ?-01 - Vysehrad (Lento Largo maestoso - Grandioso - Allegro vivo ma non
DR14 0.00 dB -19.66 dB 12:43 ?-02 - Vltava (Allegro comodo, non agitato)
DR14 0.00 dB -19.06 dB 9:52 ?-03 - Sarka (Allegro con fuoco, ma non agitato - Piu moderato assai -
DR12 0.00 dB -18.30 dB 12:59 ?-04 - Z ceskych luhu a haju (Molto moderato - Allegro poco vivo, ma
DR12 0.00 dB -17.99 dB 13:13 ?-05 - Tabor (Lento - Molto vivace - Lento maestoso)
DR13 0.00 dB -18.84 dB 14:16 ?-06 - Blanik (Allegro moderato - Andante non troppo - Piu allegro, ma
--------------------------------------------------------------------------------

Number of tracks: 6
Official DR value: DR13

Samplerate: 192000 Hz
Channels: 2
Bits per sample: 24
Bitrate: 9216 kbps
Codec: PCM
================================================================================
Nemáte oprávnění prohlížet přiložené soubory.


Zpět na “Doporučené nahrávky”

Kdo je online

Uživatelé prohlížející si toto fórum: Žádní registrovaní uživatelé a 1 host